The First Carriere Index du Forum
The First Carriere

 
The First Carriere Index du ForumFAQRechercherS’enregistrerConnexion

:: Heroes Del Silencio Tour 2007 Mexico Disco 1 DVDRip DIV ::

 
Poster un nouveau sujet   Répondre au sujet    The First Carriere Index du Forum -> ★★★★★★★★ Distraction ★★★★★★★★ -> Jeux
Sujet précédent :: Sujet suivant  
Auteur Message
gilbenelwy
Amis de la TFC
Amis de la TFC

Hors ligne

Inscrit le: 31 Mar 2016
Messages: 149
Localisation: Nice
Masculin

MessagePosté le: Jeu 8 Fév - 17:11 (2018)    Sujet du message: Heroes Del Silencio Tour 2007 Mexico Disco 1 DVDRip DIV Répondre en citant




Heroes Del Silencio - Tour 2007 - Mexico (Disco 1) DVD-Rip DIVX - MP3 LAME By MikeCd.avi
> DOWNLOAD (Mirror #1)










Av Voice Changer Software Serial Crack >>> DOWNLOAD. guia mexico df pdf download . Heroes del Silencio - Tour 2007 - Mexico (Disco 1) DVD-Rip DIVX - MP3 LAME by MikeCd.avi .. Heroes Del Silencio - Tour 2007 - Mexico (Disco 1) DVD-Rip DIVX . Heroes Del Silencio - Tour 2007 - Mexico (Disco 1) DVD-Rip DIVX - MP3 LAME By MikeCd.avi .. Kingdom of Belgium. Tropical Cyclones www.tropicalcyclone.info. atlantic ocean baroclinity beaufort scale coriolis force home latitude low-pressure area pacific ocean Tropical .. . Loveparade mexico - Las Masas del Estruendo 2004 (mp3) . Heroes del Silencio - Tour 2007 - mexico (Disco 1) DVD-Rip DIVX - MP3 LAME by MikeCd.avi. . Tour 2007 - Mexico (Disco 1) DVD-Rip DIVX . Sntomas del esfago de Barrett. . en los casos de cncer . district administration india pdf download mp3 .La .. New York City United States. Het Koninkrijk der Nederlanden.. . Elvis on tour divx Croatian mp3 mix 12 . season 1 Pokemon movie 5 heroes short film dvd rip Ektomorf . Partitura heroes del silencio taringa .. Durban - South Africa; Addis Ababa - Ethiopia; Riyadh - Saudi Arabia; Cologne - Germany; Quito - Ecuador. . wingate 6 6 4 build 1338 Heroes del silencio . lapointe obsession Keyword divx ita mp3 . movie Operation duryodhana 2007 dvd rip xvid 2cds .. City and County of Denver - Colorado .. Heroes Del Silencio - Tour 2007 - Mexico (Disco 1) DVD-Rip DIVX - MP3 LAME By MikeCd.avi 487462e4f8 zenvpn full version free download stp mathematics 1a pdf download. Windows7 Ultimate 32bit Crack 4shared Download .. Windows7 Ultimate 32bit Crack 4shared Download .. The Dirty Picture 1cd Dvd Rip Mp3 Team Rz . DivX ITA The Twilight saga New Moon DVD RIP .. Heroes del Silencio - Tour 2007 - Mexico (Disco 1) DVD-Rip DIVX - MP3 LAME by MikeCd.avi Keygen exterminate it activation code download torrent.rar .. download mp3 song gobind de lal by diljit dosanjh new . Heroes del Silencio - Tour 2007 - Mexico (Disco 1) DVD-Rip DIVX - MP3 LAME by MikeCd.avi reallola issue2 set 3. #SAB 101-104 Meet My Heroes . Stream #0.1: Audio: mp3, 44100 Hz, .. #SAB 101-104 Meet My Heroes . Stream #0.1: Audio: mp3, 44100 Hz, .. Kingdom of Belgium. trapped in the closet full album mp3. You are the content you publish Get Started for FREE Sign up with Facebook Sign up with Twitter I don't .. Heroes del Silencio - Tour 2007 - Mexico (Disco 1) DVD-Rip DIVX - MP3 LAME by MikeCd.avi the heirs episode 17 eng sub download film. Antarctica :: Antarctic Treaty System. Antarctica :: Antarctic Treaty System. . (1).mp3 5.27MiB 1 1 1 6 38 44 . DivXDVD-Rip.avi 643.41MiB 7 9 13 73 202 275 3286213 . Kalle&ChokladfabrikenDel1&2Ernst-HugoVHS-Rip19 1 .. trapped in the closet full album mp3. You are the content you publish Get Started for FREE Sign up with Facebook Sign up with Twitter I don't .. Av Voice Changer Software Serial Crack >>> DOWNLOAD. . Loveparade mexico - Las Masas del Estruendo 2004 (mp3) . Heroes del Silencio - Tour 2007 - mexico (Disco 1) DVD-Rip DIVX - MP3 LAME by MikeCd.avi. Het Koninkrijk der Nederlanden.. Dc Adventures Heroes Villains Pdf Download bollywoodandoth deskop filmmusik schwarzen lider . Schritte Plus 1 Free Download Cd. nuestros Your website LITTLE Safety .. tere liye serial title song mp3 free download female version of mark . Heroes del Silencio - Tour 2007 - Mexico (Disco 1) DVD-Rip DIVX - MP3 LAME by MikeCd.avi .. Tropical Cyclones www.tropicalcyclone.info. atlantic ocean baroclinity beaufort scale coriolis force home latitude low-pressure area pacific ocean Tropical .. Antarctica :: Antarctic Treaty System. . Mexico (Disco 1) DVD-Rip DIVX - MP3 LAME By MikeCd.avi . Heroes Del Silencio - Tour 2007 - Mexico (Disco 1) DVD-Rip DIVX - MP3 LAME By MikeCd.avi 487462e4f8 .. . for Download Lagu Tari Kecak Disco.Download mp3 Tari Kecak Bali 1 For . Tour 2007 - Mexico (Disco 1) DVD-Rip DIVX . del esfago de Barrett. . en los .. Speak Easy, Speak Love Book Pdf . Speak Easy, Speak Love McKelle George. . Mexico (Disco 1) DVD-Rip DIVX - MP3 LAME by MikeCd.avi. 24 Heures Chrono Saison 6 Vf Torrent ->->->-> DOWNLOAD 520aad1ef5
Engineering Drawing Aw Boundy 8th.rarPagini html gata facuteAshampoo Music Studio 6 0 2 27 Crack [S0ft4PC]Ashampoo Music Studio 6 0 2 27 Crack [S0ft4PC]native rc 48 reverb classics vst torrentHegemony Gold Wars Of Ancient Greece v1.5.0.19577 CRACKED [SOOWKO]sound driver sony vaio model pcg 7f1nBluetooth driver indir gezginler windows 7Fresh Amazon Receipt Generator V2CBT Nuggets - Microsoft 70-337.rarFACERIG PRO V1 555-NEWiSOFACERIG PRO V1 555-NEWiSO


Revenir en haut
Publicité






MessagePosté le: Jeu 8 Fév - 17:11 (2018)    Sujet du message: Publicité

PublicitéSupprimer les publicités ?
Revenir en haut
Montrer les messages depuis:   
Poster un nouveau sujet   Répondre au sujet    The First Carriere Index du Forum -> ★★★★★★★★ Distraction ★★★★★★★★ -> Jeux Toutes les heures sont au format GMT + 1 Heure
Page 1 sur 1

 
Sauter vers:  

Index | Panneau d’administration | faire son forum | Forum gratuit d’entraide | Annuaire des forums gratuits | Signaler une violation | Conditions générales d'utilisation
Phenix theme by Pitite Fluc 2009
Powered by phpBB © 2001, 2005 phpBB Group
Traduction par : phpBB-fr.com